iPhone and iPad don't play audio for certain videos

by Rayhan Muktader   Last Updated September 28, 2018 23:12 PM

Here's the metadata from a video file that does not work on iPad and iPhone. Does anything about the audio stick out at you?

avprobe version 0.8.17-4:0.8.17-0ubuntu0.12.04.1, Copyright (c) 2007-2014 the Libav developers
  built on Mar 16 2015 13:26:50 with gcc 4.6.3
Input #0, mov,mp4,m4a,3gp,3g2,mj2, from 'Introduction.mp4':
  Metadata:
    major_brand     : isom
    minor_version   : 512
    compatible_brands: isomiso2avc1mp41
    encoder         : Lavf54.2.100
  Duration: 00:07:54.14, start: 0.000000, bitrate: 1148 kb/s
    Stream #0.0(eng): Video: h264 (High), yuv420p, 1280x720 [PAR 1:1 DAR 16:9], 924 kb/s, 29.97 fps, 29.97 tbr, 30k tbn, 59.94 tbc
    Stream #0.1(eng): Audio: mp3, 44100 Hz, 2 channels, s16, 216 kb/s


Related Questions


Boost video’s bass

Updated September 25, 2018 10:12 AM